Você está na página 1de 2

General

ID : 1 (0x1)
Complete name :
Stephen.Hawking's.Science.of.the.Future.S01E06.Hyper.Connections.Part.1.SDTV.576i.H
.264-playTV.ts
Format : MPEG-TS
File size : 251 MiB
Duration : 10mn 33s
Overall bit rate mode : Variable
Overall bit rate : 3 317 Kbps
Maximum Overall bit rate : 35.5 Mbps

Video
ID : 4113 (0x1011)
Menu ID : 1 (0x1)
Format : MPEG Video
Format version : Version 2
Format profile : Main@Main
Format settings, BVOP : Yes
Format settings, Matrix : Custom
Format settings, GOP : M=3, N=12
Format settings, picture structure : Frame
Codec ID : 2
Duration : 10mn 33s
Bit rate mode : Variable
Bit rate : 3 024 Kbps
Maximum bit rate : 10 000 Kbps
Width : 720 pixels
Height : 576 pixels
Display aspect ratio : 16:9
Frame rate : 25.000 fps
Standard : PAL
Color space : YUV
Chroma subsampling : 4:2:0
Bit depth : 8 bits
Scan type : Interlaced
Scan order : Top Field First
Compression mode : Lossy
Bits/(Pixel*Frame) : 0.292
Time code of first frame : 08:02:49:09
Time code source : Group of pictures header
GOP, Open/Closed : Open
Stream size : 228 MiB (91%)

Audio
ID : 4352 (0x1100)
Menu ID : 1 (0x1)
Format : MPEG Audio
Format version : Version 1
Format profile : Layer 2
Mode : Joint stereo
Codec ID : 4
Duration : 10mn 33s
Bit rate mode : Constant
Bit rate : 128 Kbps
Channel(s) : 2 channels
Sampling rate : 48.0 KHz
Compression mode : Lossy
Delay relative to video : -64ms
Stream size : 9.67 MiB (4%)
Language : Romanian